Музыка | Broti Pacek – irgendwas ist immer | Upcoming

Смерть Супермена / The Death of Superman (Джейк Касторена / Jake Castorena, Сэм Лью / Sam Liu) [2018, США, Анимация, Экшн, Научная Фантастика, WEB-DL 1080p] Rus Sub 

Цитировать
Смерть Супермена / The Death of Superman
Страна: США
Жанр: Анимация, Экшн, Научная Фантастика
Продолжительность: 01:20:53
Год выпуска: 2018
Русские субтитры: есть
Режиссёр: Джейк Касторена / Jake Castorena, Сэм Лью / Sam Liu
Роли озвучивали: Джерри О’Коннелл, Ребекка Ромейн, Рэйн Уилсон, Розарио Доусон, Нэйтан Филлион, Кристофер Горам, Мэтт Лантер, Шемар Мур, Ньямби Ньямби, Джейсон О’Мара
Описание: Супермен сражается против неодолимого врага по имени Думсдэй.
Семпл: http://multi-up.com/1202862
Качество: WEB-DL 1080p
Формат: MKV
Видео: AVC, 1920x1080, 23.976 fps, 5155 kbps
Аудио: AC-3, 48,0 KHz, 6 ch ,384 kbps
Субтитры: Субтитры [UGN SUBZ Translators]

Подробные технические данные

ОбщееУникальный идентификатор                 : 197900687993830466463089500148103503411 (0x94E2493DFEAA4B78A8C47DCDBA29DE33)Полное имя                               : E:\The.Death.of.Superman.2018.1080p.WEB-DL.DD5.1.H264-FGT[UGN].mkvФормат                                   : MatroskaВерсия формата                           : Version 4 / Version 2Размер файла                             : 3,13 ГбайтПродолжительность                        : 1 ч. 20 м.Общий поток                              : 5541 Кбит/секНазвание фильма                          : The.Death.of.Superman.2018.1080p.WEB-DL.DD5.1.H264-FGTДата кодирования                         : UTC 2018-07-01 23:26:26Программа кодирования                    : mkvmerge v18.0.0 ('Apricity') 64-bitБиблиотека кодирования                   : libebml v1.3.5 + libmatroska v1.4.8Обложка                                  : YesAttachments                              : small_cover.jpg / small_cover_land.jpg / cover.jpg / cover_land.jpg
ВидеоИдентификатор : 2Формат : AVCФормат/Информация : Advanced Video CodecПрофиль формата : [email protected]Настройки формата : CABAC / 4 Ref FramesПараметр CABAC формата : ДаПараметр RefFrames формата : 4 кадраИдентификатор кодека : V_MPEG4/ISO/AVCПродолжительность : 1 ч. 20 м.Битрейт : 5155 Кбит/секШирина : 1920 пикселейВысота : 1078 пикселейСоотношение сторон : 16:9Режим частоты кадров : ПостоянныйЧастота кадров : 23,976 кадра/секЦветовое пространство : YUVСубдискретизация насыщенности : 4:2:0Битовая глубина : 8 битТип развёртки : ПрогрессивнаяБит/(Пиксели*Кадры) : 0.104Размер потока : 2,91 Гбайт (93%)Заголовок : The.Death.of.Superman.2018.1080p.WEB-DL.DD5.1.H264-FGTЯзык : EnglishDefault : ДаForced : НетЦветовой диапазон : LimitedОсновные цвета : BT.709Характеристики трансфера : BT.709Коэффициенты матрицы : BT.709
АудиоИдентификатор : 3Формат : AC-3Формат/Информация : Audio Coding 3Идентификатор кодека : A_AC3Продолжительность : 1 ч. 20 м.Вид битрейта : ПостоянныйБитрейт : 384 Кбит/секКаналы : 6 каналовРасположение каналов : Front: L C R, Side: L R, LFEЧастота : 48,0 КГцЧастота кадров : 31,250 кадров/сек (1536 SPF)Битовая глубина : 16 битМетод сжатия : С потерямиРазмер потока : 222 Мбайт (7%)Заголовок : The.Death.of.Superman.2018.1080p.WEB-DL.DD5.1.H264-FGTЯзык : EnglishServiceKind/String : Complete MainDefault : ДаForced : Нет
ТекстИдентификатор : 1Формат : UTF-8Идентификатор кодека : S_TEXT/UTF8Идентификатор кодека/Информация : UTF-8 Plain TextПродолжительность : 1 ч. 16 м.Битрейт : 98 бит/секElementCount : 783Размер потока : 54,9 Кбайт (0%)Язык : RussianDefault : ДаForced : Да
Меню00:00:00.000 : en:Chapter 100:09:32.000 : en:Chapter 200:20:02.000 : en:Chapter 300:32:29.000 : en:Chapter 400:40:18.000 : en:Chapter 500:51:40.000 : en:Chapter 601:03:31.000 : en:Chapter 701:11:00.000 : en:Chapter 801:17:04.000 : en:Chapter 9

Скриншоты

Вы не можете начинать темы
Вы не можете отвечать на сообщения
Вы не можете редактировать свои сообщения
Вы не можете удалять свои сообщения
Вы не можете голосовать в опросах
Вы не можете прикреплять файлы к сообщениям
Вы можете скачивать файлы